#TITLE:sync;
#SUBTITLE:;
#ARTIST:OutPhase;
#TITLETRANSLIT:;
#SUBTITLETRANSLIT:;
#ARTISTTRANSLIT:;
#CREDIT:;
#BANNER:sync.png;
#BACKGROUND:sync-bg.png;
#LYRICSPATH:;
#CDTITLE:!boombaTitle.png;
#MUSIC:sync.mp3;
#OFFSET:-2.955;
#SAMPLESTART:48.900;
#SAMPLELENGTH:12.000;
#SELECTABLE:YES;
#BPMS:0.000=167.000;
#STOPS:;
#BGCHANGES:;
// cache tags:
#FIRSTBEAT:0.000;
#LASTBEAT:248.000;
#SONGFILENAME:Songs/Music V.I.P ^_^/Sync [Boomba]/sync.sm;
#HASMUSIC:1;
#HASBANNER:1;
#MUSICLENGTH:99.248;
// end cache tags

//---------------dance-single - ----------------
#NOTES:
     dance-single:
     :
     Hard:
     10:
     1.000,1.000,1.000,0.010,1.000,658.000,139.000,1.000,0.000,1.000:  // measure 1
0010
1000
0100
1000
0010
0100
0001
0100
0010
1000
0100
0010
0001
1000
0010
0100
,  // measure 2
0001
0010
0100
1000
0010
0100
0001
0010
0001
1000
0100
0010
0100
1000
0010
0100
,  // measure 3
0001
0100
0010
1000
0100
0010
0001
1000
0010
0100
0001
0010
0001
0010
0100
1000
,  // measure 4
0001
0000
0010
0000
0100
0000
1000
0000
0010
0000
0100
0000
0001
0000
0100
0000
0010
0000
1000
0000
0100
0000
0010
0000
0001
1000
0001
1000
0100
0000
0010
0000
,  // measure 5
1001
0100
1001
0100
1001
0100
1001
0100
,  // measure 6
1010
0000
0001
0000
1010
0000
0001
0000
1010
0000
0001
0000
1010
0000
1000
0100
,  // measure 7
0011
0100
0011
0100
0011
0100
0011
0100
,  // measure 8
1001
0000
0100
0000
1001
0000
1000
0000
0011
0000
1000
0100
0011
0000
1100
0000
,  // measure 9
1010
0000
0001
0000
0110
0000
0001
0000
1010
0000
0001
0000
0110
0000
1000
0100
,  // measure 10
0011
0000
0100
0000
1001
0000
0100
0000
0011
0000
0100
0000
0011
0000
0010
0001
,  // measure 11
1100
0000
0001
0000
1010
0000
0001
0000
0110
0000
0001
0000
1010
0000
0001
1000
,  // measure 12
0110
0000
0000
0000
0001
0000
1000
0100
1000
0000
0000
0000
0010
0000
1000
0100
1000
0000
0000
0000
1000
0000
0001
0000
0110
0000
0000
0000
1001
0000
0000
0000
,  // measure 13
1010
0000
0001
0000
0110
0000
0001
0000
1010
0000
0100
0001
0100
0001
0100
0001
,  // measure 14
1010
0000
0001
0000
1010
0000
0001
0000
1010
0000
0010
0100
0010
0100
0010
0100
,  // measure 15
1001
0000
0100
0000
1001
0000
0100
0000
1001
0000
1000
0100
0010
0001
1000
0100
,  // measure 16
0011
1000
0010
1000
0001
1000
0100
0010
0001
1000
0010
0100
0001
0100
0010
1000
,  // measure 17
0001
0000
0100
0000
1000
0001
0000
0010
0000
0000
1000
0000
0100
0000
0010
0000
,  // measure 18
0001
0000
0100
0000
0001
0100
0000
1000
0000
0000
0010
0000
0100
0000
0001
0000
,  // measure 19
1000
0100
1000
0100
0010
0001
0010
0001
,  // measure 20
0100
0001
0100
0001
1000
0010
0100
0010
,  // measure 21
1000
0000
0001
0000
0010
0100
0000
1000
0000
0000
0001
0000
1000
0000
0010
0000
,  // measure 22
0100
0000
0010
0000
1000
0001
0000
0100
0000
0000
0001
0000
1000
0000
0100
0000
,  // measure 23
0010
0001
0010
0001
0100
1000
0100
1000
,  // measure 24
0010
0100
0001
1000
0010
0100
0001
0100
0001
0010
0001
1000
0100
1000
0100
0010
,  // measure 25
1001
0000
0110
0000
1000
0001
0000
0011
0000
0000
1100
0000
1010
0000
0101
0000
,  // measure 26
0110
0000
1001
0000
0010
0100
0000
1001
0000
0000
1100
0000
0011
0000
1100
0000
,  // measure 27
1001
0100
0010
0100
1001
0010
0100
0010
,  // measure 28
1001
0000
0001
0000
0100
0000
0001
0000
0011
0000
0100
0001
1100
0000
0010
0001
,  // measure 29
1100
0000
1001
0000
1000
0100
0000
1010
0000
0000
0110
0000
0101
0000
0011
0000
,  // measure 30
1100
0000
1001
0000
0100
0010
0000
1001
0000
0000
0101
0000
0011
0000
1100
0000
,  // measure 31
1001
0010
1000
0010
0101
0010
1000
0001
,  // measure 32
0110
0001
1000
0100
0010
0100
1000
0100
0010
0001
1000
0100
1000
0010
0100
0001
,  // measure 33
1010
0000
0101
0000
1000
0010
0000
0101
0000
0000
0011
0000
1100
0000
1001
0000
,  // measure 34
0110
0000
1001
0000
0010
0100
0000
1001
0000
0000
0011
0000
1100
0000
1001
0000
,  // measure 35
1000
0100
0010
0000
0010
0100
1000
0000
1000
0100
0010
0000
0010
0001
1000
0000
,  // measure 36
0001
0100
0001
0000
0001
1000
0010
0100
0001
0100
0001
0010
0100
1000
0010
0100
,  // measure 37
1001
0000
0110
0000
0100
0010
0000
0101
0000
0000
0011
0000
0101
0000
1010
0000
,  // measure 38
1100
0000
0110
0000
1000
0100
0000
1010
0000
0000
0110
0000
1001
0000
0110
0000
,  // measure 39
1000
0100
0010
0000
0001
0010
0100
0000
0100
0010
0001
0000
0010
0100
1000
0000
,  // measure 40
1000
0010
0100
0000
0001
0100
0010
1000
0001
0100
0010
1000
0100
0010
0001
1000
,  // measure 41
0110
0000
0101
0000
0010
0001
0000
1001
0000
0000
1100
0000
1010
0000
0110
0000
,  // measure 42
0101
0000
0011
0000
1000
0100
0000
1001
0000
0000
0101
0000
0011
0000
0101
0000
,  // measure 43
0010
1000
0001
0000
0001
0100
0001
0000
0001
0010
0001
0000
1000
0100
1000
0000
,  // measure 44
1000
0010
0100
0000
0001
0100
0010
1000
0001
0100
0001
0010
0001
1000
0100
0010
,  // measure 45
1001
0000
1100
0000
0100
0010
0000
0110
0000
0000
0101
0000
0011
0000
1100
0000
,  // measure 46
0110
0000
0101
0000
0100
0010
0000
1010
0000
0000
0101
0000
0110
0000
1001
0000
,  // measure 47
1000
0100
0010
0000
0001
1000
0100
0000
1000
0001
0010
0000
0100
1000
0001
0000
,  // measure 48
0110
0001
1000
0100
1000
0001
0100
0001
1000
0100
1000
0001
0010
0001
1000
0010
,  // measure 49
0101
0010
1000
0001
0100
0010
0100
0001
1100
0010
0100
0001
0100
0010
1000
0100
,  // measure 50
1010
0001
1000
0100
1000
0010
1000
0001
0110
0001
0010
0100
1000
0010
0100
0001
,  // measure 51
1100
0010
1000
0100
0010
0001
1000
0010
0100
0001
0100
0010
1000
0001
0100
0001
,  // measure 52
0010
0100
1000
0010
0100
0001
0010
0100
1000
0100
0010
0001
1000
0010
0100
0001
,  // measure 53
1100
0010
1000
0001
0100
0010
1000
0001
1010
0100
1000
0100
0010
0001
1000
0100
,  // measure 54
1001
0010
0100
0001
0010
0100
1000
0010
1100
0001
0100
0001
1000
0001
0010
0100
,  // measure 55
1010
0001
0100
0010
0100
0001
1000
0010
1000
0001
0100
0010
1000
0100
0010
0001
,  // measure 56
1000
0100
1000
0100
0010
0001
1000
0100
1000
0010
0100
0001
0100
0010
1000
0001
,  // measure 57
0110
0000
1000
0000
,  // measure 58
0010
0000
0100
0000
,  // measure 59
0001
0000
0000
0000
0000
0000
0000
0000
0000
0000
0100
1000
0100
1000
0100
1000
,  // measure 60
0000
0000
0000
0000
0000
0000
0000
0000
0000
0000
0010
0100
0010
0100
0010
0100
,  // measure 61
1001
0000
1010
0000
,  // measure 62
0011
0000
0210
0000
,  // measure 63
1301
0000
0000
0000
;
